EXmas 2023 1080p AMZN WEB-DL DDP5.1 H264-FLUX
Download: Magnet Download
Type: Movies
Total Files: 2
Total Size: 6.10 GB
More Info: NA
Uploaded: 17-Nov-2023
Uploader: mazemaze16 trusted
Seeders: 0
Leechers: 1
Info Hash: 34789B113C35CCCBCAB4B94194AB29F7651D829F
Details
EXmas 2023 1080p AMZN WEB-DL DDP5 1 H 264-FLUX 

Format : Matroska
Format version : Version 4
File size : 6.08 GiB
Duration : 1 h 33 min
Overall bit rate : 9 305 kb/s
Writing application : mkvmerge v79.0 ('Funeral Pyres') 64-bit
Writing library : libebml v1.4.4 + libmatroska v1.7.1

Video
ID : 1
Format : AVC
Format/Info : Advanced Video Codec
Format profile : High@L4
Format settings : CABAC / 4 Ref Frames
Format settings, CABAC : Yes
Format settings, Reference frames : 4 frames
Codec ID : V_MPEG4/ISO/AVC
Duration : 1 h 33 min
Bit rate mode : Constant
Bit rate : 8 480 kb/s
Nominal bit rate : 10 000 kb/s
Width : 1 920 pixels
Height : 960 pixels
Display aspect ratio : 2.000
Frame rate mode : Constant
Frame rate : 23.976 (24000/1001) FPS
Color space : YUV
Chroma subsampling : 4:2:0
Bit depth : 8 bits
Scan type : Progressive
Bits/(Pixel*Frame) : 0.192
Stream size : 5.54 GiB (91%)
Language : English (US)
Default : Yes
Forced : No
Color range : Limited
Color primaries : BT.709
Transfer characteristics : BT.709
Matrix coefficients : BT.709

Audio
ID : 2
Format : E-AC-3
Format/Info : Enhanced AC-3
Commercial name : Dolby Digital Plus
Codec ID : A_EAC3
Duration : 1 h 33 min
Bit rate mode : Constant
Bit rate : 640 kb/s
Channel(s) : 6 channels
Channel layout : L R C LFE Ls Rs
Sampling rate : 48.0 kHz
Frame rate : 31.250 FPS (1536 SPF)
Compression mode : Lossy
Stream size : 428 MiB (7%)
Language : English (US)
Service kind : Complete Main
Default : Yes
Forced : No

Text #1
ID : 3
Format : UTF-8
Codec ID : S_TEXT/UTF8
Codec ID/Info : UTF-8 Plain Text
Language : English (US)
Default : No
Forced : No

Text #2
ID : 4
Format : UTF-8
Codec ID : S_TEXT/UTF8
Codec ID/Info : UTF-8 Plain Text
Title : SDH
Language : English (US)
Default : No
Forced : No

Text #3
ID : 5
Format : UTF-8
Codec ID : S_TEXT/UTF8
Codec ID/Info : UTF-8 Plain Text
Language : German (DE)
Default : No
Forced : No

Text #4
ID : 6
Format : UTF-8
Codec ID : S_TEXT/UTF8
Codec ID/Info : UTF-8 Plain Text
Title : Latin American
Language : Spanish (Latin America)
Default : No
Forced : No

Text #5
ID : 7
Format : UTF-8
Codec ID : S_TEXT/UTF8
Codec ID/Info : UTF-8 Plain Text
Title : Canadian
Language : French (CA)
Default : No
Forced : No

Menu
00:00:00.000 : en:Studio Logo
00:00:22.000 : en:Scene 2
00:01:49.000 : en:Scene 3
00:03:14.000 : en:Scene 4
00:03:36.000 : en:Title Sequence
00:03:44.000 : en:Scene 6
00:04:01.000 : en:Scene 7
00:04:40.000 : en:Scene 8
00:06:54.000 : en:Scene 9
00:09:08.000 : en:Scene 10
00:10:43.000 : en:Scene 11
00:12:52.000 : en:Scene 12
00:15:48.000 : en:Scene 13
00:17:08.000 : en:Scene 14
00:17:45.000 : en:Scene 15
00:20:06.000 : en:Scene 16
00:20:47.000 : en:Scene 17
00:22:29.000 : en:Scene 18
00:23:58.000 : en:Scene 19
00:24:30.000 : en:Scene 20
00:25:14.000 : en:Scene 21
00:26:26.000 : en:Scene 22
00:27:09.000 : en:Scene 23
00:27:55.000 : en:Scene 24
00:30:05.000 : en:Scene 25
00:30:57.000 : en:Scene 26
00:31:58.000 : en:Scene 27
00:33:24.000 : en:Scene 28
00:34:59.000 : en:Scene 29
00:35:51.000 : en:Scene 30
00:36:48.000 : en:Scene 31
00:37:24.000 : en:Scene 32
00:38:00.000 : en:Scene 33
00:39:14.000 : en:Scene 34
00:40:10.000 : en:Scene 35
00:40:51.000 : en:Scene 36
00:41:53.000 : en:Scene 37
00:45:31.000 : en:Scene 38
00:46:17.000 : en:Scene 39
00:47:45.000 : en:Scene 40
00:48:22.000 : en:Scene 41
00:49:45.000 : en:Scene 42
00:50:42.000 : en:Scene 43
00:52:17.000 : en:Scene 44
00:53:48.000 : en:Scene 45
00:54:31.000 : en:Scene 46
00:55:30.000 : en:Scene 47
00:56:14.000 : en:Scene 48
00:57:34.000 : en:Scene 49
00:58:50.000 : en:Scene 50
01:04:01.000 : en:Scene 51
01:05:13.000 : en:Scene 52
01:06:42.000 : en:Scene 53
01:08:24.000 : en:Scene 54
01:10:59.000 : en:Scene 55
01:11:40.000 : en:Scene 56
01:12:12.000 : en:Scene 57
01:12:49.000 : en:Scene 58
01:13:28.000 : en:Scene 59
01:14:09.000 : en:Scene 60
01:14:54.000 : en:Scene 61
01:16:05.000 : en:Scene 62
01:16:39.000 : en:Scene 63
01:17:21.000 : en:Scene 64
01:22:28.000 : en:Scene 65
01:25:29.000 : en:Scene 66
01:27:40.000 : en:Scene 67
01:28:58.000 : en:Scene 68
01:29:29.000 : en:Scene 69
01:30:08.000 : en:End Credits
Files List
EXmas.2023.1080p.AMZN.WEB-DL.DDP5.1.H.264-FLUX.mkv (6.1 GB)
EXmas.2023.1080p.AMZN.WEB-DL.DDP5.1.H.264-FLUX.mkv.nfo (9.2 KB)
Related Downloads
DL Title Time Files Type Size SE LE
EXmas.2023.2160p.AMZN.WEB-DL.DDP5.1.H.265-FLUX [TGx] 3 months 3 Movie 9.90 GB 8 4
EXmas 2023 2160p AMZN WEB-DL DDP5.1 H 265-FLUX 3 months 2 Movie 9.90 GB 0 1

How to get Magnet link of torrent files?

Method 1: Direct

Click on the magnet icon. It will automatically open torrent client installed on your operating system.

Method 2: Copy/Paste

Right click on the magnet icon and click on Copy Link Address. Paste the copied link in your torrent client.