Snack.Shack.2024.2160p.WEB-DL.DDP5.1.DV.HDR.H.265-FLUX
Download: Magnet Download
Type: Movies
Total Files: 2
Total Size: 19.70 GB
More Info: NA
Uploaded: 02-Apr-2024
Uploader: mazemaze16 trusted
Seeders: 10
Leechers: 8
Info Hash: CC2948DED76162AB9E08DE6B7EB60DE2DAF6A6B6
Details
Snack Shack 2024 2160p WEB-DL DDP5 1 DV HDR H 265-FLUX 

Format : Matroska
Format version : Version 4
File size : 19.7 GiB
Duration : 1 h 52 min
Overall bit rate : 25.2 Mb/s
Frame rate : 23.976 FPS
Writing application : mkvmerge v83.0 ('Circle Of Friends') 64-bit
Writing library : libebml v1.4.5 + libmatroska v1.7.1

Video
ID : 1
Format : HEVC
Format/Info : High Efficiency Video Coding
Format profile : Main 10@L5@High
HDR format : Dolby Vision, Version 1.0, Profile 8.1, dvhe.08.06, BL+RPU, HDR10 compatible / SMPTE ST 2094 App 4, Version HDR10+ Profile B, HDR10+ Profile B compatible
Codec ID : V_MPEGH/ISO/HEVC
Duration : 1 h 52 min
Bit rate : 24.0 Mb/s
Width : 3 840 pixels
Height : 1 600 pixels
Display aspect ratio : 2.40:1
Frame rate mode : Constant
Frame rate : 23.976 (23976/1000) FPS
Color space : YUV
Chroma subsampling : 4:2:0 (Type 2)
Bit depth : 10 bits
Bits/(Pixel*Frame) : 0.163
Stream size : 18.8 GiB (95%)
Language : English (US)
Default : Yes
Forced : No
Color range : Limited
Color primaries : BT.2020
Transfer characteristics : PQ
Matrix coefficients : BT.2020 non-constant
Mastering display color primaries : Display P3
Mastering display luminance : min: 0.0050 cd/m2, max: 1000 cd/m2
Maximum Content Light Level : 757 cd/m2
Maximum Frame-Average Light Level : 196 cd/m2

Audio
ID : 2
Format : E-AC-3
Format/Info : Enhanced AC-3
Commercial name : Dolby Digital Plus
Codec ID : A_EAC3
Duration : 1 h 52 min
Bit rate mode : Constant
Bit rate : 640 kb/s
Channel(s) : 6 channels
Channel layout : L R C LFE Ls Rs
Sampling rate : 48.0 kHz
Frame rate : 31.250 FPS (1536 SPF)
Compression mode : Lossy
Delay relative to video : 12 ms
Stream size : 514 MiB (3%)
Language : English (US)
Service kind : Complete Main
Default : Yes
Forced : No

Text #1
ID : 3
Format : UTF-8
Codec ID : S_TEXT/UTF8
Codec ID/Info : UTF-8 Plain Text
Language : English (US)
Default : No
Forced : No
Files List
Snack Shack 2024 2160p WEB-DL DDP5 1 DV HDR H 265-FLUX.mkv (19.7 GB)
Snack Shack 2024 2160p WEB-DL DDP5 1 DV HDR H 265-FLUX.mkv.nfo (4.6 KB)
Related Downloads
DL Title Time Files Type Size SE LE
Snack.Shack.2024.2160p.WEB-DL.DDP5.1.DV.HDR.H.265-FLUX [TGx] 14 days 3 Movie 19.70 GB 57 17

How to get Magnet link of torrent files?

Method 1: Direct

Click on the magnet icon. It will automatically open torrent client installed on your operating system.

Method 2: Copy/Paste

Right click on the magnet icon and click on Copy Link Address. Paste the copied link in your torrent client.