The.American.Society.of.Magical.Negroes.2024.1080p.AMZN.WEB-DL.DDP5.1.Atmos.H264-FLUX
Download: Magnet Download
Type: Movies
Total Files: 3
Total Size: 6.30 GB
More Info: NA
Uploaded: 02-Apr-2024
Uploader: mazemaze16 trusted
Seeders: 10
Leechers: 1
Info Hash: 7443CC47D8D0570A771FE97AC5D049970C29606B
Details
The American Society of Magical Negroes 2024 1080p AMZN WEB-DL DDP5 1 Atmos H 264-FLUX 

Format : Matroska
Format version : Version 4
File size : 6.32 GiB
Duration : 1 h 44 min
Overall bit rate : 8 639 kb/s
Frame rate : 23.976 FPS
Writing application : mkvmerge v83.0 ('Circle Of Friends') 64-bit
Writing library : libebml v1.4.5 + libmatroska v1.7.1

Video
ID : 1
Format : AVC
Format/Info : Advanced Video Codec
Format profile : High@L4
Format settings : CABAC / 4 Ref Frames
Format settings, CABAC : Yes
Format settings, Reference frames : 4 frames
Codec ID : V_MPEG4/ISO/AVC
Duration : 1 h 44 min
Bit rate mode : Constant
Bit rate : 7 699 kb/s
Nominal bit rate : 10 000 kb/s
Width : 1 920 pixels
Height : 1 040 pixels
Display aspect ratio : 1.85:1
Frame rate mode : Constant
Frame rate : 23.976 (24000/1001) FPS
Color space : YUV
Chroma subsampling : 4:2:0
Bit depth : 8 bits
Scan type : Progressive
Bits/(Pixel*Frame) : 0.161
Stream size : 5.63 GiB (89%)
Language : English (US)
Default : Yes
Forced : No
Color range : Limited
Color primaries : BT.709
Transfer characteristics : BT.709
Matrix coefficients : BT.709

Audio
ID : 2
Format : E-AC-3 JOC
Format/Info : Enhanced AC-3 with Joint Object Coding
Commercial name : Dolby Digital Plus with Dolby Atmos
Codec ID : A_EAC3
Duration : 1 h 44 min
Bit rate mode : Constant
Bit rate : 768 kb/s
Channel(s) : 6 channels
Channel layout : L R C LFE Ls Rs
Sampling rate : 48.0 kHz
Frame rate : 31.250 FPS (1536 SPF)
Compression mode : Lossy
Delay relative to video : 10 ms
Stream size : 576 MiB (9%)
Language : English (US)
Service kind : Complete Main
Default : Yes
Forced : No
Complexity index : 16
Number of dynamic objects : 15
Bed channel count : 1 channel
Bed channel configuration : LFE

Text #1
ID : 3
Format : UTF-8
Codec ID : S_TEXT/UTF8
Codec ID/Info : UTF-8 Plain Text
Language : English (US)
Default : No
Forced : No
Files List
The American Society of Magical Negroes 2024 1080p AMZN WEB-DL DDP5 1 Atmos H 264-FLUX.jpg (421.0 KB)
The American Society of Magical Negroes 2024 1080p AMZN WEB-DL DDP5 1 Atmos H 264-FLUX.mkv (6.3 GB)
The American Society of Magical Negroes 2024 1080p AMZN WEB-DL DDP5 1 Atmos H 264-FLUX.mkv.nfo (6.5 KB)

How to get Magnet link of torrent files?

Method 1: Direct

Click on the magnet icon. It will automatically open torrent client installed on your operating system.

Method 2: Copy/Paste

Right click on the magnet icon and click on Copy Link Address. Paste the copied link in your torrent client.